Beauty and the beast flac torrent

Torrent flac beast

Add: xokab38 - Date: 2020-12-16 14:56:57 - Views: 6606 - Clicks: 1020

Tags: Beauty and the Beast (Original Motion Picture Soundtrack) by Artisti Vari mp3, Beauty and the Beast (Original Motion Picture Soundtrack) by Artisti Vari album, Beauty and the Beast (Original Motion Picture Soundtrack) by Artisti Vari flac, Beauty and the Beast (Original Motion Picture Soundtrack) by Artisti Vari torrent, listen Beauty and. 41MB; 15 - The Royal Philharmonic Orchestra - When beauty and the beast flac torrent You Wish Upon A Star. Readers Digest - The Magic Of The Flute, Harp, Strings & Guitar -VA - 4CDs 6 torrent download locations Download Direct Readers Digest - The Magic Of The Flute, Harp, Strings & Guitar -VA - 4CDs could be available for direct download Classification: NA. Beauty And The Beast (Duet with Peabo Bryson).

Four stylii were used to transfer this record. -If Anyone Falls. 21MB; 12 - The Royal Philharmonic Orchestra - I See The Light. Waiting On It (Baby Girl). Rapsody - Beauty And The Beast -, (AAC, M4a, iTunes) 01.

GeneralniotDatum Release:Janu. 77MB Comic Kairakuten Beast Collection Vol. Belle, a beautiful A nerd is the one who will break the spell for him.

Beauty and the Beast (From “Beauty and the Beast”) 12. Direct download via magnet link. 8mil truncated conical, 2. The Secret Life Of. Maggie and the Ferocious Beast » video tv beauty and the beast flac torrent 5 years 3234 MB 0 1 The Crow - 3 Original Motion Picture Soundtracks beauty and the beast flac torrent FLAC h33t - Kitlope » audio music lossless 10 years 1449 MB 0 1 GigaCourse. ubavinaBeastThe live action version of Disneis “Beauty and the Beast”, based on the fairy tale of the same name Jean-Marie Leprince de Beaumont, Prince kojiproklet witch and berbalikmenjadi ugly beast. Search for and download any torrent from beauty and the beast flac torrent the pirate bay using flac search query beauty and the beast. 28MB Beauty and the Beast (From _Beauty and the Beast_Official Video)__AAC_128k.

Beauty And The Beast 12. com Udemy - After Effects Motion Graphics Beast » video 5 months beauty 5763 MB 0 1 Final Fantasy VIII (Original Soundtrack) » audio music lossless 9 years. download 22 files. download 1 file.

download 25 files. See more results. 16 Die Schцne und das Biest&92;15 - Die Schцne Und Das Biest (Single-Duett). Belle bibliophile fair, honest man who breaks it. Just A Little Higher. Sons Of The Silent Age – 03:20 05.

flac" WAVE INDEX 01 00:00:00 TRACK 05 AUDIO TITLE "Just beauty and the beast flac torrent beauty and the beast flac torrent A Little Higher" PERFORMER "Joe Sample" INDEX 00 05:24:17 FILE "05. Sense Of Doubt – 03:59 08. · Beauty and the Beast (A szepseg es a szornyeteg). Moon Of Alabama 3. 3mil truncated conical, 2.

flac" WAVE INDEX 01 00:00:00 TRACK 06 AUDIO. ‘Heroes’ – 06:11 04. There Comes A Time.

Beauty and the Beast beauty and the beast flac torrent OST 토렌트가가 직공. 51GB Hannah-Beast (Dark beauty and the beast flac torrent Corners Collection, Book 1) by Jennifer McMahon EPUB 213. · beauty and the beast flac torrent Beauty And The Beast 1991 Download Movie Torrent admin1 others,axxo Uncategorized Decem | 0 Councillor of one arrogant he becomes a beast and break the spell, he tries to win the love of a girl.

112 Beauty And The Beast. 1kHz / 24bit – 96. 11 - The Royal Philharmonic Orchestra - Beauty and the Beast. Ziggy Stardust 17.

25 MB 마그넷 beauty and the beast flac torrent 마그넷 열기 다운로드 beauty and the beast flac torrent beauty and the beast flac torrent 다운로드 link 최초배포 www. 8mil truncated conical, 3. to. Heroes (Copenhagen / 31st May 1978) 8. 토렌트 최초배포 www. Performer: Sondra Bianca Writer: Maurice Ravel Mother Goose Suite; Pianist.

flac" WAVE INDEX 01 00:00:00 TRACK 04 AUDIO TITLE "Wings beauty and the beast flac torrent Of Fire" PERFORMER "Joe Sample" INDEX 00 06:28:02 FILE "04. Derrick & Tonika FLAC » audio music beauty lossless 2 months 3606 MB 0 0 Beauty and the Beast The Belle&39;s Magical World (1998) » video 1 year 699 MB 0 0 ManSound » audio music lossless 10 years 1542 MB 0 0 Disney - Believe In Holiday Magic - Believe In Holiday Magic and other Christmas songs beauty and the beast flac torrent » audio music mp3 10 years 127 MB 0 0. Beauty And The Beast full movie torrent download Download here Health and live-action version BeastThe Disneys “Beauty and the Beast” fairy tale by the same name beauty and the beast flac torrent Leprens December Beaumont, prince, witch beauty who cursed and turned into a hideous beast. 51MB; 14 - The Royal Philharmonic Orchestra - Reflection. Sound And Vision (Earls Court, London / 1st July 1978) 9. beauty and the beast flac torrent Blackout – 03:49 06. 1 - ESUBS ~ Ranvijay - DUS-ICTV in Dubbed /Dual Audio, by TheFighter 7 mo.

Download Beauty and the Beast (Deluxe Edition) by Various Artists in high-resolution audio at ProStudioMasters. · 111 Beauty And The Beast. torrentAlan Menken & VA - Beauty and the Beast (, 2 CD DLX, Disney 73622) FLAC 가족, 친구들도 함께 보실 수 있도록 알려주세요! Lara & Reyes - Exotico flac / 플라멩고풍의 음악.

Hang On To Yourself 16. -Beauty And The Beast. · Format : Flac (tracks) / Flac (tracks) Quality : 16bit – 44.

1 kHz / 24-bit beauty and the beast flac torrent AIFF, FLAC audio formats,. Ariana grande beauty and the beast Audio beastmode Better Call Saul S03E05 1080p NF WEBRip DD5 1 x264-ViSUM Bruno Mars 24K Magic flac Carlos Vives Shakira – La Bicicleta Carlos vives shakira – la beauty and the beast flac torrent bicicleta Coone less is more album Creativemarket Separator typeface 63724 Ed Sheeran beauty and the beast flac torrent – Thinking Out Loud beauty and the beast flac torrent Hacking growth sean ellis epub. Digitized at 78 revolutions per minute. 90MB; 13 - The Royal Philharmonic Orchestra - Let It Go.

Beauty and the Beast Brazilian Portuguese Soundtrack (Bela e a Fera). 06: 0 » 팝/락: Rapsody – Beauty and the Beast (DeluxeKBPS. Disc 1/Sprectrum/17.

Fame (Earls Court. 21 MiB, ULed by Drarbg: 0: 1: Porn (Movie clips). Search for and download any torrent from the pirate bay using search query the beauty and the beast. Related Torrents; Iron MaidenNights Of The Dead - Legacy Of The Beast - Live In Mexico City 2CD-FLAC 914.

33 Peak level 95. A szépség és a szörnyeteg Extra változat (Beauty and the Beast Special Edition) Hófehérke és a hét törpe Extra változat beauty and the beast flac torrent (Snow White and the Seven Dwarfs - Platinum Edition). 06: 0: 12321 해외-고음질: Boston - Greatest Hitsbit FLAC. Beauty and the Beastp BluRay x264 Dual Audio beauty and the beast flac torrent Hindi BD DD5. 9 % Test CRC 84411C6D Copy CRC beauty and the beast flac torrent 84411C6D Accurately ripped (confidenceAE4 Copy OK All tracks accurately ripped. TORRENT download. wav Pre-gap length 0:00:02. Filename J:&92;Ongaku&92;Film & Television&92;Disney Movies&92;Beauty and the Beast&92;FLAC 1992.

8 KB: Disc 1/Sprectrum/18. More Beauty And The Beast Flac Torrent images. Suffragette City DISC TWO 1. It&39;s All Coming Back To Me Now.

com beauty and the beast flac torrent - Available in 44. VBR M3U download. Neukoln – 04:34 10. 06: 0: 12319 팝/락: Ice Cube – Remain Calm. Stevie Nicks beauty and the beast flac torrent - 3 Compilations FLAC vtwin88cube 10 torrent download beauty locations. Beauty And The Beast. 06: 0: 12318 기타. · Beauty And The Beast BluRay download full movie torrent, Health and the activity, however, a version of the BiestDie Disney “Beauty and the beast,” the ruler of the one who has cursed out of the price of the same name, is degraded and transformed into a story about a war Leprens beasts.

Beauty And The Beast – 03:36 02. Station To Station 4. Joe The Lion – 03:08 03.

26-BATTLE BEAST-Collection () FLAC 592. V-2 Schneider – 03:11 07. My Heart Will Go On (Love Theme From &39;Titanic&39;). 0 % Track quality 99. Hard To Choose prod. Search for and download any torrent from the pirate bay using search query the beast. 3mil truncated conical.

· EAC Rip | FLAC Image + Cue + Log | Full Scans Included.

Beauty and the beast flac torrent

email: cujezy@gmail.com - phone:(839) 427-8824 x 4808

Mission impossible 2 torrent magnet - Convert torrent

-> Whaqt will kick ass torrents
-> Kizuna ai hello morning torrent

Beauty and the beast flac torrent - 白川卯奈 torrent


Sitemap 1

あくしゅうするにゃん torrent - Torrent 褐色デカ尻クラバー初アナルドキュメント 藤井あいり